Friday, 18 April 2014

Bhoothnath Return 2014 Movie Highly Compressed (1.46 MB Only)

Bhoothnath Returns is an Indian horror comedy film directed by Nitesh Tiwari and produced jointly by Bhushan Kumar, Krishan Kumar, Ravi Chopra and co-produced by Ajay kapoor. A sequel to 2008 film Bhoothnath, the film features Amitabh Bachchan in a leading role followed by Parth Bhalerao and Boman Irani in a supporting role. As shared by Bachchan on Twitter, shooting of the film began on 10 October 2013. The film also has a cameo appearance of Shahrukh Khan and Ranbir Kapoor.

The film released on 11 April 2014.Yo Yo Honey Singh has composed one of the songs in this film titled Party with the Bhootnath.

IMDB Rating: 8.3/10.0

GENRE: Action | Comedy | Crime

IMDB Rating: 8.3/10.0

GENRE: Action | Comedy | Crime



General

Unique ID : 187755289103989343128171565192930546467 (0x8D405A752964B51CA34342BBDBD25323)

Complete name : Bhoothnath Returns (2014) 1CD (New Source) DVDSCR-Rip x264 - .mkv

Format : Matroska

Format version : Version 4 / Version 2

File size : 700 MiB

Duration : 2h 29mn

Overall bit rate : 656 Kbps

Movie name : Bhoothnath Returns (2014) 1CD (New Source) DVDSCR-Rip x264 - AC3 - Mafiaking - [D3Si MaNiaCs] 

Encoded date : UTC 2014-04-12 04:41:51

Writing application : mkvmerge v6.8.0 ('Theme for Great Cities') 64bit built on Mar 2 2014 21:34:26

Writing library : libebml v1.3.0 + libmatroska v1.4.1


Video

ID : 1

Format : AVC

Format/Info : Advanced Video Codec

Format profile : High@L3.0

Format settings, CABAC : Yes

Format settings, ReFrames : 5 frames

Codec ID : V_MPEG4/ISO/AVC

Duration : 2h 29mn

Bit rate : 590 Kbps

Width : 640 pixels

Height : 272 pixels

Display aspect ratio : 2.35:1

Frame rate mode : Constant

Frame rate : 29.970 fps

Color space : YUV

Chroma subsampling : 4:2:0

Bit depth : 8 bits

Scan type : Progressive

Bits/(Pixel*Frame) : 0.113

Stream size : 618 MiB (88%)

Title : Mafiaking


Language : Hindi

Default : Yes

Forced : No


Audio

ID : 2

Format : AC-3

Format/Info : Audio Coding 3

Mode extension : CM (complete main)

Format settings, Endianness : Big

Codec ID : A_AC3

Duration : 2h 29mn

Bit rate mode : Constant

Bit rate : 64.0 Kbps

Channel(s) : 2 channels

Channel positions : Front: L R

Sampling rate : 48.0 KHz

Bit depth : 16 bits

Compression mode : Lossy

Stream size : 68.3 MiB (10%)

Title : Mafiaking

Language : Hindi

Default : Yes

Forced : No




                                                 :ss:












SCREENSHOT PROOF OF HIGHLY COMPRESSED FILE:
{Click On The Image To See It Large}



Socializer Widget By My Blogger Widgets
SOCIALIZE IT →
FOLLOW US →
SHARE IT →

14 comments:

  1. To improve your skills of writing essays and various blog related stuff, you can examine some tips how to write a conclusion

    ReplyDelete
  2. I would like to thank you for the efforts you have made in writing this article. I am hoping the same best work from you in the future as well. Thanks...
    Best Digital Marketing Agency

    ReplyDelete
  3. I just found this blog and have high hopes for it to continue. Keep up the great work, its hard to find good ones. I have added to my favorites. Thank You.SEO Company New York

    ReplyDelete
  4. Excellent and very exciting site. Love to watch. Keep Rocking.Paint Removal Sterling VA

    ReplyDelete
  5. An obligation of appreciation is all together for putting aside the push to grant us such a mind-blowing article. Also visit here: Feeta.pk property for sale in karachi . Keep Sharing..

    ReplyDelete
  6. Very valuable information! Redspider Ecommerce Website Development  is about to tell you that I was looking for something like that and found it here, Congratulations!

    ReplyDelete
  7. Good article, but it would be better if in future you can share more about this subject. Keep posting. ล้างรถอุบล

    ReplyDelete
  8. This movie is hard to find online, People are glad to finally see it on here. Bhoothnath Return 2014 Movie Highly Compressed and we don't know the nursing essay help is the great providing services many people talked to these writers are great and experienced we should use to this service and share to own experience.

    ReplyDelete
  9. The three main characters, Amitabh Bachchan (as Booth Nath), Parth Behlrao (as Brotherhood), and Bowman Irani, all gave outstanding performances (as a corrupt politician). Props include: (Butnath returns) As I previously stated, the acting and storey were excellent 3d logo design services and timely. The location was completely set up to meet the script's requirements. This film will provide a positive message in the next elections. Contrary to popular belief, there are a number of disadvantages to using this method (BootNet Return) It's possible that screenplay and editing are preferable.

    ReplyDelete
  10. The Best Movie For Our Childrens. keep It up.!
    Looking for Pay Someone To Take My Online Course? Yes, we’re the most trusted best online course help provider. We are pioneer of do my online course for me.

    ReplyDelete
  11. Look for a stylish motorcycle jacket? Check this GSX-R Black Leather Jacket which gives you a killer and hot look when you ride a motorcycle, buy now because the stock is limited.

    ReplyDelete
  12. We are a family owned and operated construction company located in Sacramento. We specialize in construction and remodeling. We offer top competitive pricing with the upmost professional and attenion to detail. Our customer satisfaction is top priority.

    Services we provide :

    bathroom remodeling sacramento
    kitchen remodeling sacramento
    roseville kitchen remodeling
    bathroom remodeling roseville
    replacement windows roseville ca
    bathroom remodeling elk grove

    ReplyDelete
  13. Country code guide made easier for you to find out country codes such as country code 44, 234 country code, 852 country code, 41 country code.

    ReplyDelete